Skip to main content

Max Creek Live at B.B. King Blues Club & Grill on 2001-09-28




Max Creek
Friday, September 28, 2001
B.B. King Blues Club & Grill
New York, New York


-ONE SET ONLY-
d1t01 - Louisiana Sun >
d1t02 - See It My Way >
d1t03 - Blood Red Roses
d1t04 - stage chatter/technical adj.
d1t05 - The Same Things >
d1t06 - Said And Done
d2t01 - You're The Only One
d2t02 - Yellow Moon >
d2t03 - After Midnight >
d2t04 - Something Is Forming
-ENCORE-
d2t05 - stage chatter
d2t06 - High On A Mountain
d2t07 - Tangled Up In Blue (lead vocals: Eamon Cronin)


Collection MaxCreek
Band/Artist Max Creek
Venue B.B. King Blues Club & Grill
Location New York, NY

Source SBD>DAT(SonyTCD-8)
Lineage DAT(SonyPCM-R300) >PC(Edirol UA-1D@44.1kHz) > Soundforge9>wav>flac(level7)
Taped by fryinbri
Transferred by fryinbri

Notes

length expanded size cdr WAVE problems fmt ratio filename
16:59.53 179876300 B --- -- ---xx flac 0.4733 mc2001-09-28d1t01.flac
12:40.61 134207516 B --- -- ---xx flac 0.4876 mc2001-09-28d1t02.flac
9:44.15 103052924 B --- -- ---xx flac 0.4752 mc2001-09-28d1t03.flac
6:50.25 72382844 B --- -- ---xx flac 0.2673 mc2001-09-28d1t04.flac
19:15.56 203873756 B --- -- ---xx flac 0.4448 mc2001-09-28d1t05.flac
9:53.57 104739308 B --- -- ---xx flac 0.3940 mc2001-09-28d1t06.flac
8:17.50 87788444 B --- -- ---xx flac 0.4743 mc2001-09-28d2t01.flac
17:15.09 182595212 B --- -- ---xx flac 0.4254 mc2001-09-28d2t02.flac
13:01.56 137900156 B --- -- ---xx flac 0.4980 mc2001-09-28d2t03.flac
16:44.57 177239708 B --- -- ---xx flac 0.5047 mc2001-09-28d2t04.flac
3:37.08 38297660 B --- -- ---xx flac 0.3011 mc2001-09-28d2t05.flac
5:10.26 54745196 B --- -- ---xx flac 0.5207 mc2001-09-28d2t06.flac
11:30.31 121788956 B --- -- ---xx flac 0.4950 mc2001-09-28d2t07.flac
151:01.54 1598487980 B 0.4558 (13 files)



ffp:
mc2001-09-28d1t01.flac:c216fa1029b15cb6e01db538111df0c3
mc2001-09-28d1t02.flac:d5e155dc0c0b30df743dda59710aa2ae
mc2001-09-28d1t03.flac:d4f542ff73bb81240a7ccae0c017e37e
mc2001-09-28d1t04.flac:3a2a37d294be8094e9a94b8fcc3f5240
mc2001-09-28d1t05.flac:4f7bc2cb5da11ac778c7c28199a12d41
mc2001-09-28d1t06.flac:d34c46320778ecec421ad5542a99ea8a
mc2001-09-28d2t01.flac:754a077015ad0055d483c1cb0a1feb1e
mc2001-09-28d2t02.flac:f89ef50d6dea50236a9603950d728ad8
mc2001-09-28d2t03.flac:c716c11998ae0e62a9c1801ccf2a992d
mc2001-09-28d2t04.flac:cf5f6977fe8648de441613f6a4f1abb5
mc2001-09-28d2t05.flac:8a8f72b53ec7465529d5bf31d5e48721
mc2001-09-28d2t06.flac:ef6075f2bcf2febdbb2a63992f3e3890
mc2001-09-28d2t07.flac:c1ba42f5626202422f01a38622b52021

Reviews

There are no reviews yet. Be the first one to write a review.
PEOPLE ALSO FOUND
Max Creek
by Max Creek
6,439
0
0
Source: Master Soundboard Cassette Sony D5 Maxell XLII
Max Creek
by Max Creek
375
1
0
Source: SBD>DAT(SonyTCD-8)
Max Creek
by Max Creek
307
1
0
Source: SBD>DAT(SonyTCD-8)
Max Creek
by Max Creek
635
1
0
Source: SBD>DAT(SonyTCD-8)
Max Creek
by Max Creek
1,569
1
2
( 2 reviews )
Source: AUD(Beyers201's)>DAT(SonyTCD-8)
Max Creek
2,273
1
0
Source: SBD>DAT(SonyTCD-8)
Max Creek
by Max Creek
274
1
0
Source: SBD>Analog Master(MarantzPMD-430)
Max Creek
by Max Creek
702
2
0
Source: SBD>Analog Master(MarantzPMD-430)
Max Creek
by Max Creek
823
1
0
Source: AUD(Beyers201's)>DAT(SonyTCD-8)
Max Creek
695
1
0
Source: SBD>DAT(SonyTCD-8)